#TITLE:Running In the 90s;
#SUBTITLE:;
#ARTIST:Max Coveri;
#TITLETRANSLIT:;
#SUBTITLETRANSLIT:;
#ARTISTTRANSLIT:;
#CREDIT:;
#BANNER:runninginthe90s-banner.png;
#BACKGROUND:runninginthe90s-bg.png;
#LYRICSPATH:;
#CDTITLE:reny.png;
#MUSIC:Running In The 90s.mp3;
#OFFSET:-3.111;
#SAMPLESTART:6.057;
#SAMPLELENGTH:12.000;
#SELECTABLE:YES;
#BPMS:0.000=158.495;
#STOPS:;
#BGCHANGES:;
// cache tags:
#FIRSTBEAT:8.000;
#LASTBEAT:232.000;
#SONGFILENAME:Songs/Music V.I.P ^_^/Running in the 90's [Ren]/running.sm;
#HASMUSIC:1;
#HASBANNER:1;
#MUSICLENGTH:94.040;
// end cache tags

//---------------dance-single - ----------------
#NOTES:
     dance-single:
     :
     Hard:
     9:
     0.671,0.709,0.276,0.223,0.255,395.000,26.000,21.000,0.000,0.000:  // measure 1
0000
0000
0000
0000
,  // measure 2
0000
0000
0000
0000
,  // measure 3
0100
0000
0001
0000
0010
0100
1000
0000
0100
0000
1000
0000
0010
0100
0001
0000
,  // measure 4
1000
0000
0100
1000
0000
1000
0001
0000
0001
0000
0100
0001
0000
0001
1000
0000
,  // measure 5
0100
0000
1000
0000
0010
0100
0001
0000
0100
0000
0001
0000
0010
0100
2000
0000
,  // measure 6
0000
0000
0000
3000
,  // measure 7
0001
0100
0001
0100
0001
1000
0001
1000
,  // measure 8
0010
1000
0010
1000
0100
1000
0100
1000
,  // measure 9
0001
1000
0001
1000
0100
0010
0100
0010
,  // measure 10
0001
0010
0100
1000
0100
0010
0001
1000
,  // measure 11
0010
0000
1000
0000
0001
1000
0001
0000
0010
0000
0001
0000
1000
0001
1000
0000
,  // measure 12
0001
0000
0100
0001
0000
0001
1000
0000
1000
0000
0100
1000
0000
1000
0001
0000
,  // measure 13
0100
0000
0010
0000
1000
0100
1000
0000
0100
0000
0010
0000
0001
0100
0001
0000
,  // measure 14
1000
0100
0000
1000
0001
0000
0001
0000
0010
0001
0000
0001
1000
0000
0001
0000
,  // measure 15
0010
0000
0001
0000
1000
0001
1000
0000
0010
0000
1000
0000
0001
1000
0001
0000
,  // measure 16
1000
0000
0100
1000
0000
1000
0001
0000
0001
0000
0100
0001
0000
0001
1000
0000
,  // measure 17
0100
0000
0010
0000
0001
0100
0001
0000
0100
0000
0010
0000
1000
0100
1000
0000
,  // measure 18
0001
0010
0100
1000
0100
0010
0001
1000
,  // measure 19
1001
0100
0001
1000
0100
1000
0001
0100
,  // measure 20
1001
0100
1000
0001
0100
0001
1000
0100
,  // measure 21
1001
0010
0001
1000
0010
1000
0001
0010
,  // measure 22
0110
0000
1001
0000
1000
2100
0000
0000
,  // measure 23
3001
0100
1000
0100
0001
0100
1000
0100
,  // measure 24
0001
0010
1000
0010
0001
0010
1000
0010
,  // measure 25
0001
1000
0010
0001
0010
1000
0001
0010
,  // measure 26
0011
0000
1100
0000
0001
0102
0000
0000
,  // measure 27
1003
0100
0010
0000
1000
0100
0010
0000
,  // measure 28
0001
0100
0001
0100
0001
0100
0000
0000
,  // measure 29
0010
1000
0100
0000
0010
1000
0100
0000
,  // measure 30
2000
3200
0302
0023
,  // measure 31
0130
1000
0001
0000
0100
1000
0001
0000
,  // measure 32
1000
0010
1000
0010
1000
0010
0000
0000
,  // measure 33
0001
0100
1000
0000
0001
0100
1000
0000
,  // measure 34
2200
3300
0202
0303
2020
3030
0022
0033
,  // measure 35
1000
0000
1000
0000
0001
0000
1001
1001
,  // measure 36
0000
0200
0000
0000
0000
0000
0310
1000
,  // measure 37
0100
0010
0100
1000
0010
0100
0001
0010
,  // measure 38
0000
0000
0011
1100
,  // measure 39
0001
0000
0001
0000
1000
0000
1001
1001
,  // measure 40
0000
0200
0000
0000
0000
0000
0000
0000
,  // measure 41
1300
0100
0010
0100
0001
0100
0010
0100
,  // measure 42
0001
0100
1000
0010
0001
0010
1000
0100
,  // measure 43
0020
0000
0230
0000
0310
0000
1001
1001
,  // measure 44
0000
0200
0000
0000
0000
0000
0310
0001
,  // measure 45
0100
0010
0100
0001
0010
0100
1000
0010
,  // measure 46
0000
0000
1010
0101
,  // measure 47
1000
0000
1000
0000
0001
0000
1001
1001
,  // measure 48
0000
0200
0000
0000
0000
0000
0000
0000
,  // measure 49
0301
0100
1000
0000
1000
0100
0001
0000
,  // measure 50
0001
0010
1000
0000
1000
0010
0001
0000
,  // measure 51
0010
0000
1000
0000
0001
1000
0001
0000
0010
0000
0001
0000
1000
0001
1000
0000
,  // measure 52
0001
0000
0100
0001
0000
0001
1000
0000
1000
0000
0100
1000
0000
1000
0001
0000
,  // measure 53
0100
0000
0010
0000
1000
0100
1000
0000
0100
0000
0010
0000
0001
0100
0001
0000
,  // measure 54
1000
0100
0000
1000
0001
0000
0001
0000
0010
0001
0000
0001
1000
0000
0001
0000
,  // measure 55
0010
0000
0001
0000
1000
0001
1000
0000
0010
0000
1000
0000
0001
1000
0001
0000
,  // measure 56
1000
0000
0100
1000
0000
1000
0001
0000
0001
0000
0100
0001
0000
0001
1000
0000
,  // measure 57
0100
0000
0010
0000
0001
0100
0001
0000
0100
0000
0010
0000
1000
0100
1000
0000
,  // measure 58
0001
0010
0100
1000
0100
0010
0001
1000
,  // measure 59
1001
0000
0000
0000
;

//---------------dance-single - ----------------
#NOTES:
     dance-single:
     :
     Challenge:
     10:
     0.883,0.833,0.627,0.202,0.691,503.000,59.000,19.000,0.000,0.000:  // measure 1
0000
0000
0000
0000
,  // measure 2
0000
0000
0000
0000
,  // measure 3
0001
0100
0001
0010
0100
0010
0001
0000
0000
1000
0100
1000
0010
0100
0010
0000
,  // measure 4
1000
0001
1000
0001
0000
0001
0100
0000
0001
1000
0001
1000
0000
1000
0100
0000
,  // measure 5
0001
0100
0001
0010
0100
0010
0001
0000
0000
1000
0100
1000
0010
0100
0020
0000
,  // measure 6
0000
0000
0000
0030
,  // measure 7
1000
0100
1000
0010
0100
0010
1000
0000
0000
0001
0100
0001
0010
0100
0010
0000
,  // measure 8
0001
1000
0001
1000
0000
1000
0100
0000
1000
0001
1000
0001
0000
0001
0100
0000
,  // measure 9
1000
0100
1000
0010
0100
0010
1000
0000
0000
0001
0100
0001
0010
0100
0010
0000
,  // measure 10
0001
0010
0100
1000
0100
0010
0001
1000
,  // measure 11
0001
0010
0100
1000
0100
0010
0001
0000
1000
0010
0100
0001
0100
0010
1000
0000
,  // measure 12
0001
0100
0001
0100
0000
0001
1000
0000
0100
1000
0100
0010
0000
0001
0100
0000
,  // measure 13
0001
0100
0001
1000
0010
0100
0010
0000
1000
0100
1000
0001
0010
0100
0010
0000
,  // measure 14
0100
1000
0000
0010
0100
0000
0100
0000
0001
0010
0000
0100
0010
0000
0010
0000
,  // measure 15
0001
1000
0001
0010
0100
1000
0100
0000
1000
0001
1000
0010
0100
0001
0100
0000
,  // measure 16
1000
0001
0100
0001
0000
0100
0001
0000
0001
1000
0100
1000
0000
0100
1000
0000
,  // measure 17
0001
0100
0001
0010
0001
1000
0001
0000
1000
0100
1000
0010
1000
0001
1000
0000
,  // measure 18
0001
0010
0100
1000
0100
0010
0001
1000
,  // measure 19
1001
0100
1001
0100
0001
0010
0100
1000
,  // measure 20
1100
0001
1100
0001
1000
0010
0100
0001
,  // measure 21
1010
0100
1010
0100
0010
0100
1000
0100
,  // measure 22
0011
0000
1100
0000
0101
0202
0000
0303
,  // measure 23
1001
0010
1001
0010
1000
0100
0010
0001
,  // measure 24
0011
1000
0011
1000
0001
0100
0010
1000
,  // measure 25
0101
0010
0101
0010
0100
0010
0001
0100
,  // measure 26
1100
0000
0011
0000
1010
2020
0000
3030
,  // measure 27
1100
0010
0001
1000
1100
0010
0001
1000
,  // measure 28
0101
0010
0100
1000
0010
0100
0001
0010
,  // measure 29
0011
0100
1000
0001
0011
0100
1000
0001
,  // measure 30
0101
0100
0110
0010
1010
1000
1001
0001
,  // measure 31
1001
0100
1000
0100
1001
0100
0001
0100
,  // measure 32
1010
1000
0001
0010
0100
0010
0001
1000
,  // measure 33
0001
0100
1000
0100
0001
1000
0100
1000
,  // measure 34
2200
3300
0202
0303
0022
0033
2020
3030
,  // measure 35
1001
0000
1001
0000
1100
0000
0101
0102
,  // measure 36
0000
1003
0000
0000
0000
0000
0001
0010
,  // measure 37
0100
0000
1000
0000
0010
0000
0100
0000
0001
0100
0001
0000
0010
0000
0010
0000
,  // measure 38
0100
0000
1000
0000
0001
0000
0100
0000
0001
0000
1000
0100
1000
0000
0001
0000
,  // measure 39
1001
0000
1001
0000
0011
0000
1010
2010
,  // measure 40
0000
3001
0000
0000
0000
0000
0000
0000
,  // measure 41
1000
1000
0100
0100
0010
0010
0001
0001
,  // measure 42
1000
0010
0100
0001
1000
0010
0100
0001
1000
0100
0010
0001
1000
0100
0010
0001
,  // measure 43
1001
0000
0110
0000
1001
0000
1100
0101
,  // measure 44
0000
0202
0000
0000
0303
0000
1000
0100
,  // measure 45
0001
0000
0100
0000
1000
0000
0001
0000
0100
1000
0100
0000
0001
0000
0001
0000
,  // measure 46
1000
0000
0010
0000
0100
0000
0001
0000
0100
0000
0010
1000
0010
0000
0001
0000
,  // measure 47
1001
0000
0110
0000
1001
0000
0011
1010
,  // measure 48
0000
2020
0000
0000
3030
0000
0000
0000
,  // measure 49
0001
0001
0100
0100
0010
0010
1000
1000
,  // measure 50
0001
0100
0001
0000
0010
0000
0100
0000
1000
0100
1000
0000
0010
0000
0100
0000
,  // measure 51
0001
0010
0100
1000
0100
0010
0001
0000
1000
0010
0100
0001
0100
0010
1000
0000
,  // measure 52
0001
0100
0001
0100
0000
0001
1000
0000
0100
1000
0100
0010
0000
0001
0100
0000
,  // measure 53
0001
0100
0001
1000
0010
0100
0010
0000
1000
0100
1000
0001
0010
0100
0010
0000
,  // measure 54
0100
1000
0000
0010
0100
0000
0100
0000
0001
0010
0000
0100
0010
0000
0010
0000
,  // measure 55
0001
1000
0001
0010
0100
1000
0100
0000
1000
0001
1000
0010
0100
0001
0100
0000
,  // measure 56
1000
0001
0100
0001
0000
0100
0001
0000
0001
1000
0100
1000
0000
0100
1000
0000
,  // measure 57
0001
0100
0001
0010
0001
1000
0001
0000
1000
0100
1000
0010
1000
0001
1000
0000
,  // measure 58
0001
0010
0100
1000
0100
0010
0001
1000
,  // measure 59
1001
0000
0000
0000
;
